aoloffline
版主

[2017] [欧美] [科幻] [BD-3D] [BT下载]猩球崛起3[3D左右]2017.1080p.3D.BluRay.Half-SBS.x264.DTS-HD.MA.7.1-FGT 23GB

-->

War.for.the.Planet.of.the.Apes.2017.1080p.3D.BluRay.Half-SBS.x264.DTS-HD.MA.7.1-FGT

◎译  名 猩球崛起3:终极之战/猩球崛起:终极决战(台)/猿人争霸战:猩凶巨战(港)/猩球大战:猿力觉醒(豆友译名)/猩球崛起3/人猿猩球3

◎片  名 War for the Planet of the Apes

◎年  代 2017

◎产  地 美国

◎类  别 剧情/动作/科幻

◎语  言 英语/美国手语

◎上映日期 2017-07-14(美国)/2017-09-15(中国大陆)

◎IMDb评分  7.8/10 from 86,775 users

◎IMDb链接  http://www.imdb.com/title/tt3450958/

◎豆瓣评分 7.0/10 from 81,705 users

◎豆瓣链接 https://movie.douban.com/subject/25808075/

◎BT之家整理 http://www.btbtt.me/

◎片  长 140分钟

◎导  演 马特·里夫斯 Matt Reeves

◎主  演 安迪·瑟金斯 Andy Serkis

      伍迪·哈里森 Woody Harrelson

      史蒂夫·茨恩 Steve Zahn

      卡琳·考诺娃 Karin Konoval

      阿米尔·米勒 Amiah Miller

      泰瑞·诺塔里 Terry Notary

      泰·奥尔森 Ty Olsson

      迈克尔·亚当思韦特 Michael Adamthwaite

      托比·凯贝尔 Toby Kebbell

      加布里埃尔·查瓦里亚 Gabriel Chavarria

      朱迪·格雷尔 Judy Greer

      莎拉·坎宁 Sara Canning

      德文·达尔顿 Devyn Dalton

      阿莱克斯·潘诺维奇 Aleks Paunovic

      亚历桑德罗·朱利安尼 Alessandro Juliani

      马克斯·洛伊德-琼斯 Max Lloyd-Jones

      蒂莫西·韦伯 Timothy Webber


◎简  介


  凯撒(安迪·瑟金斯 饰)领导的猿族将被迫与残暴的Colonel(伍迪·哈里森 饰)领导的人类军队上演一场生死大战。猿族在战斗中遭遇了前所未有的重创,由此激发了凯撒内心中黑暗的一面,心中燃起复仇的烈火。最终,凯撒与Colonel面对面进行了一场关乎猿族和人类命运的终极之战。


Video

ID                                       : 1

Format                                   : AVC

Format/Info                              : Advanced Video Codec

Format profile                           : High@L4.1

Format settings, CABAC                   : Yes

Format settings, ReFrames                : 3 frames

Codec ID                                 : V_MPEG4/ISO/AVC

Duration                                 : 2 h 20 min

Nominal bit rate                         : 15.5 Mb/s

Width                                    : 1 920 pixels

Height                                   : 1 080 pixels

Display aspect ratio                     : 16:9

Frame rate mode                          : Constant

Frame rate                               : 23.976 (24000/1001) FPS

Color space                              : YUV

Chroma subsampling                       : 4:2:0

Bit depth                                : 8 bits

Scan type                                : Progressive

Bits/(Pixel*Frame)                       : 0.312

Title                                    : War.for.the.Planet.of.the.Apes.2017.1080p.3D.BluRay.Half-SBS.x264.DTS-HD.MA.7.1-FGT

Writing library                          : x264 core 148

Encoding settings                        : cabac=1 / ref=3 / deblock=1:-1:-1 / analyse=0x3:0 / me=hex / subme=5 / psy=1 / psy_rd=1.00:0.00 / mixed_ref=0 / me_range=16 / chroma_me=1 / trellis=1 / 8x8dct=1 / cqm=0 / deadzone=21,11 / fast_pskip=0 / chroma_qp_offset=0 / threads=8 / lookahead_threads=2 / sliced_threads=0 / nr=0 / decimate=1 / interlaced=0 / bluray_compat=0 / constrained_intra=0 / bframes=2 / b_pyramid=0 / b_adapt=1 / b_bias=0 / direct=1 / weightb=0 / open_gop=0 / weightp=0 / keyint=24 / keyint_min=2 / scenecut=40 / intra_refresh=0 / rc=abr / mbtree=0 / bitrate=15500 / ratetol=1.0 / qcomp=0.60 / qpmin=0 / qpmax=69 / qpstep=4 / ip_ratio=1.40 / pb_ratio=1.30 / aq=1:1.00

Default                                  : Yes

Forced                                   : No

Color range                              : Limited

Color primaries                          : BT.709

Transfer characteristics                 : BT.709

Matrix coefficients                      : BT.709


Audio #1

ID                                       : 2

Format                                   : DTS

Format/Info                              : Digital Theater Systems

Format profile                           : MA / ES Matrix / Core

Mode                                     : 16

Format settings, Endianness              : Big

Codec ID                                 : A_DTS

Duration                                 : 2 h 20 min

Bit rate mode                            : Variable / Constant / Constant

Bit rate                                 : Unknown / 1 509 kb/s / 1 509 kb/s

Channel(s)                               : 8 channels / 7 channels / 6 channels

Channel positions                        : Front: L C R, Side: L R, Back: L R, LFE / Front: L C R, Side: L R, Back: C, LFE / Front: L C R, Side: L R, LFE

Sampling rate                            : 48.0 kHz

Frame rate                               : 93.750 FPS (512 spf)

Bit depth                                : 24 bits

Compression mode                         : Lossless / Lossy / Lossy

Title                                    : War.for.the.Planet.of.the.Apes.2017.1080p.3D.BluRay.Half-SBS.x264.DTS-HD.MA.7.1-FGT

Language                                 : English

Default                                  : Yes

Forced                                   : No


Audio #2

ID                                       : 3

Format                                   : DTS

Format/Info                              : Digital Theater Systems

Format profile                           : ES Matrix / Core

Mode                                     : 16

Format settings, Endianness              : Big

Codec ID                                 : A_DTS

Duration                                 : 2 h 20 min

Bit rate mode                            : Constant

Bit rate                                 : 1 509 kb/s

Channel(s)                               : 7 channels / 6 channels

Channel positions                        : Front: L C R, Side: L R, Back: C, LFE / Front: L C R, Side: L R, LFE

Sampling rate                            : 48.0 kHz

Frame rate                               : 93.750 FPS (512 spf)

Bit depth                                : 24 bits

Compression mode                         : Lossy

Stream size                              : 1.48 GiB (6%)

Title                                    : War.for.the.Planet.of.the.Apes.2017.1080p.3D.BluRay.Half-SBS.x264.DTS-HD.MA.7.1-FGT

Language                                 : English

Default                                  : No

Forced                                   : No


Audio #3

ID                                       : 4

Format                                   : AC-3

Format/Info                              : Audio Coding 3

Format settings, Endianness              : Big

Codec ID                                 : A_AC3

Duration                                 : 2 h 20 min

Bit rate mode                            : Constant

Bit rate                                 : 448 kb/s

Channel(s)                               : 6 channels

Channel positions                        : Front: L C R, Side: L R, LFE

Sampling rate                            : 48.0 kHz

Frame rate                               : 31.250 FPS (1536 spf)

Bit depth                                : 16 bits

Compression mode                         : Lossy

Stream size                              : 449 MiB (2%)

Title                                    : War.for.the.Planet.of.the.Apes.2017.1080p.3D.BluRay.Half-SBS.x264.DTS-HD.MA.7.1-FGT

Language                                 : English

Service kind                             : Complete Main

Default                                  : No

Forced                                   : No


Audio #4

ID                                       : 5

Format                                   : AC-3

Format/Info                              : Audio Coding 3

Format settings, Endianness              : Big

Codec ID                                 : A_AC3

Duration                                 : 2 h 20 min

Bit rate mode                            : Constant

Bit rate                                 : 448 kb/s

Channel(s)                               : 6 channels

Channel positions                        : Front: L C R, Side: L R, LFE

Sampling rate                            : 48.0 kHz

Frame rate                               : 31.250 FPS (1536 spf)

Bit depth                                : 16 bits

Compression mode                         : Lossy

Stream size                              : 449 MiB (2%)

Title                                    : War.for.the.Planet.of.the.Apes.2017.1080p.3D.BluRay.Half-SBS.x264.DTS-HD.MA.7.1-FGT

Language                                 : Spanish

Service kind                             : Complete Main

Default                                  : No

Forced                                   : No


Audio #5

ID                                       : 6

Format                                   : AC-3

Format/Info                              : Audio Coding 3

Format settings, Endianness              : Big

Codec ID                                 : A_AC3

Duration                                 : 2 h 20 min

Bit rate mode                            : Constant

Bit rate                                 : 448 kb/s

Channel(s)                               : 6 channels

Channel positions                        : Front: L C R, Side: L R, LFE

Sampling rate                            : 48.0 kHz

Frame rate                               : 31.250 FPS (1536 spf)

Bit depth                                : 16 bits

Compression mode                         : Lossy

Stream size                              : 449 MiB (2%)

Title                                    : War.for.the.Planet.of.the.Apes.2017.1080p.3D.BluRay.Half-SBS.x264.DTS-HD.MA.7.1-FGT

Language                                 : French

Service kind                             : Complete Main

Default                                  : No

Forced                                   : No


Audio #6

ID                                       : 7

Format                                   : AC-3

Format/Info                              : Audio Coding 3

Format settings, Endianness              : Big

Codec ID                                 : A_AC3

Duration                                 : 2 h 20 min

Bit rate mode                            : Constant

Bit rate                                 : 448 kb/s

Channel(s)                               : 6 channels

Channel positions                        : Front: L C R, Side: L R, LFE

Sampling rate                            : 48.0 kHz

Frame rate                               : 31.250 FPS (1536 spf)

Bit depth                                : 16 bits

Compression mode                         : Lossy

Stream size                              : 449 MiB (2%)

Title                                    : War.for.the.Planet.of.the.Apes.2017.1080p.3D.BluRay.Half-SBS.x264.DTS-HD.MA.7.1-FGT

Language                                 : Portuguese

Service kind                             : Complete Main

Default                                  : No

Forced                                   : No


Text #1

ID                                       : 8

Format                                   : PGS

Muxing mode                              : zlib

Codec ID                                 : S_HDMV/PGS

Codec ID/Info                            : Picture based subtitle format used on BDs/HD-DVDs

Title                                    : English-PGS

Language                                 : English

Default                                  : Yes

Forced                                   : No


Text #2

ID                                       : 9

Format                                   : PGS

Muxing mode                              : zlib

Codec ID                                 : S_HDMV/PGS

Codec ID/Info                            : Picture based subtitle format used on BDs/HD-DVDs

Title                                    : English-FORCED-PGS

Language                                 : English

Default                                  : No

Forced                                   : No


Text #3

ID                                       : 10

Format                                   : PGS

Muxing mode                              : zlib

Codec ID                                 : S_HDMV/PGS

Codec ID/Info                            : Picture based subtitle format used on BDs/HD-DVDs

Title                                    : Spanish-PGS

Language                                 : Spanish

Default                                  : No

Forced                                   : No


Text #4

ID                                       : 11

Format                                   : PGS

Muxing mode                              : zlib

Codec ID                                 : S_HDMV/PGS

Codec ID/Info                            : Picture based subtitle format used on BDs/HD-DVDs

Title                                    : French-PGS

Language                                 : French

Default                                  : No

Forced                                   : No


Text #5

ID                                       : 12

Format                                   : PGS

Muxing mode                              : zlib

Codec ID                                 : S_HDMV/PGS

Codec ID/Info                            : Picture based subtitle format used on BDs/HD-DVDs

Title                                    : Portuguese-PGS

Language                                 : Portuguese

Default                                  : No

Forced                                   : No


Menu

00:00:00.000                             : en01)00:00:00:000

00:05:05.888                             : en02)00:05:05:888

00:09:06.712                             : en03)00:09:06:712

00:12:14.108                             : en04)00:12:14:108

00:18:21.016                             : en05)00:18:21:016

00:25:04.503                             : en06)00:25:04:503

00:30:17.398                             : en07)00:30:17:398

00:34:13.092                             : en000:34:13:092

00:37:46.347                             : en09)00:37:46:347

00:42:54.446                             : en10)00:42:54:446

00:49:31.802                             : en11)00:49:31:802

00:54:14.626                             : en12)00:54:14:626

00:58:49.817                             : en13)00:58:49:817

01:05:24.128                             : en14)01:05:24:128

01:10:18.380                             : en15)01:10:18:380

01:14:53.822                             : en16)01:14:53:822

01:18:59.192                             : en17)01:18:59:192

01:25:35.672                             : en101:25:35:672

01:29:37.372                             : en19)01:29:37:372

01:34:22.823                             : en20)01:34:22:823

01:39:27.711                             : en21)01:39:27:711

01:43:48.222                             : en22)01:43:48:222

01:48:45.393                             : en23)01:48:45:393

01:55:20.580                             : en24)01:55:20:580

01:58:04.702                             : en25)01:58:04:702

02:02:33.929                             : en26)02:02:33:929

02:05:54.797                             : en27)02:05:54:797

02:12:51.213                             : en202:12:51:213

02:20:09.025                             : en29)02:20:09:025





1 个附件 售价 大小 下载 时间

War.for.the.Planet.of.the.Apes.2017.1080p.3D.BluRay.Half-SBS.x264.DTS-HD.MA.7.1-FGT[btbtt.me].torrent 0 金币 58.26K 4270 次 1月前

#1楼
发帖时间:2017-10-18 11:10:01   |   回复数:6
911degrees
一代宗师
非常感谢,谢谢分享
1月前 #2楼
liyouchai
超凡入圣№
谢谢楼主分享资源
1月前 #3楼
blue23
隐世仙人♂
感谢楼主分享
1月前 #4楼
凌峰九度
武林高手
谢谢楼主心情分享
1月前 #5楼
jokingcheung
一代宗师
谢谢分享
1月前 #6楼
张小虎1986
武林高手
谢谢楼主高清分享猩球3,每次都靠你。
7天前 #7楼
游客组