aoloffline
版主

[2017] [韩国] [悬疑] [WEB-1080P] [BT下载]记忆之夜 Forgotten.2017.iNTERNAL.1080p.WEB.x264-STRiFE 3.65GB

-->

Forgotten.2017.iNTERNAL.1080p.WEB.x264-STRiFE

◎译  名 记忆之夜

◎片  名 기억의 밤

◎年  代 2017

◎产  地 韩国

◎类  别 悬疑/惊悚

◎语  言 韩语

◎上映日期 2017-11-29(韩国)

◎IMDb评分  6.8/10 from 81 users

◎IMDb链接  http://www.imdb.com/title/tt7057496/

◎豆瓣评分 7.2/10 from 2,570 users

◎豆瓣链接 https://movie.douban.com/subject/27047871/

◎BT之家整理 http://www.btbtt.co

◎片  长 109分钟

◎导  演 张恒俊 Jang Hang-joon

◎主  演 姜河那 Ha-neul Kang

      金武烈 Moo-yeol Kim

      文成根 Seung Geun Moon

      罗映姬 Na Young-hee

      南明烈 Nam Myung-ryul

      李恩宇 Eun-woo Lee

      郑灿菲 Chan-bi  Jeong

      崔高 Choi-go

      康辛久 Sin-goo Kang

      安敏永 Ahn Min-yeong

      朴在荣 Jae-yeong Park

      郑泽贤 Taek-hyeon Jeong

      裴成一 Seong-il Bae

      李淳元 Lee Soon-won

      边东俊 Dong-joon Byeon

      朴采益 Park Chae-ik

      权亨俊 Hyeong-joon Kwon

      金泰恩 Tae-eung Kim

      申基禄 Sin Gi-rok

      吴贤洙 Oh Hyeon-soo

      朴敬贞 Park Kyeong-chan

      韩泰恩 Han Tae-eun

      赵韩娜 Jo Han-na

      韩多恩 Han Da-eun

      李成宇 Lee Sung-woo

      李东镇 Lee Dong-jin

      延济亨 Yeon Je-hyeong

      刘仁秀 Yoo In-soo

      金贤莫 Kim Hyun-mok

      金贤昌 Kim Hyeon-chang

      康克洙 Kang Hak-soo

      李彰勋 Lee Chang-hoon

      林正民 Im Jeong-min

      全相珍 Jeon Sang-jin

      金珠黄 Kim Joo-hwang

      马贞弼 Ma Jeong-pil

      李熙成 Lee Hee-seong

      李承勇 Lee Seung-yong


◎简  介


  《记忆之夜》是一部讲述兄弟故事的惊悚片,哥哥因绑架事件失去了记忆,弟弟则一直在为哥哥找寻记忆 。


Video
ID                                       : 1
Format                                   : AVC
Format/Info                              : Advanced Video Codec
Format profile                           : Main@L4
Format settings                          : CABAC / 3 Ref Frames
Format settings, CABAC                   : Yes
Format settings, RefFrames               : 3 frames
Codec ID                                 : V_MPEG4/ISO/AVC
Duration                                 : 1 h 48 min
Bit rate mode                            : Variable
Bit rate                                 : 4 420 kb/s
Maximum bit rate                         : 6 630 kb/s
Width                                    : 1 920 pixels
Height                                   : 1 080 pixels
Display aspect ratio                     : 16:9
Frame rate mode                          : Constant
Frame rate                               : 23.976 (24000/1001) FPS
Color space                              : YUV
Chroma subsampling                       : 4:2:0
Bit depth                                : 8 bits
Scan type                                : Progressive
Bits/(Pixel*Frame)                       : 0.089
Stream size                              : 3.35 GiB (92%)
Writing library                          : x264 core 148 r2714 2daf636
Encoding settings                        : cabac=1 / ref=3 / deblock=1:0:0 / analyse=0x1:0x111 / me=umh / subme=10 / psy=1 / psy_rd=1.00:0.00 / mixed_ref=1 / me_range=24 / chroma_me=1 / trellis=2 / 8x8dct=0 / cqm=0 / deadzone=21,11 / fast_pskip=1 / chroma_qp_offset=-2 / threads=6 / lookahead_threads=1 / sliced_threads=0 / nr=0 / decimate=1 / interlaced=0 / bluray_compat=0 / stitchable=1 / constrained_intra=0 / bframes=2 / b_pyramid=0 / b_adapt=2 / b_bias=0 / direct=3 / weightb=1 / open_gop=0 / weightp=2 / keyint=48 / keyint_min=25 / scenecut=0 / intra_refresh=0 / rc_lookahead=48 / rc=2pass / mbtree=1 / bitrate=4420 / ratetol=1.0 / qcomp=0.50 / qpmin=6 / qpmax=51 / qpstep=4 / cplxblur=20.0 / qblur=0.5 / vbv_maxrate=6630 / vbv_bufsize=8840 / nal_hrd=vbr / filler=0 / ip_ratio=1.40 / aq=1:1.00
Language                                 : Korean
Default                                  : Yes
Forced                                   : No

Audio
ID                                       : 2
Format                                   : AC-3
Format/Info                              : Audio Coding 3
Format settings, Endianness              : Big
Codec ID                                 : A_AC3
Duration                                 : 1 h 48 min
Bit rate mode                            : Constant
Bit rate                                 : 384 kb/s
Channel(s)                               : 6 channels
Channel positions                        : Front: L C R, Side: L R, LFE
Sampling rate                            : 48.0 kHz
Frame rate                               : 31.250 FPS (1536 SPF)
Bit depth                                : 16 bits
Compression mode                         : Lossy
Stream size                              : 299 MiB (8%)
Language                                 : Korean
Service kind                             : Complete Main
Default                                  : Yes
Forced                                   : No

Text #1
ID                                       : 3
Format                                   : UTF-8
Codec ID                                 : S_TEXT/UTF8
Codec ID/Info                            : UTF-8 Plain Text
Duration                                 : 1 h 47 min
Bit rate                                 : 39 b/s
Count of elements                        : 1020
Stream size                              : 31.2 KiB (0%)
Language                                 : English
Default                                  : Yes
Forced                                   : No

Text #2
ID                                       : 4
Format                                   : UTF-8
Codec ID                                 : S_TEXT/UTF8
Codec ID/Info                            : UTF-8 Plain Text
Duration                                 : 1 h 47 min
Bit rate                                 : 35 b/s
Count of elements                        : 1016
Stream size                              : 28.2 KiB (0%)
Title                                    : Brazilian
Language                                 : Portuguese
Default                                  : No
Forced                                   : No

Text #3
ID                                       : 5
Format                                   : UTF-8
Codec ID                                 : S_TEXT/UTF8
Codec ID/Info                            : UTF-8 Plain Text
Duration                                 : 1 h 47 min
Bit rate                                 : 39 b/s
Count of elements                        : 1025
Stream size                              : 30.9 KiB (0%)
Language                                 : French
Default                                  : No
Forced                                   : No

Text #4
ID                                       : 6
Format                                   : UTF-8
Codec ID                                 : S_TEXT/UTF8
Codec ID/Info                            : UTF-8 Plain Text
Duration                                 : 1 h 47 min
Bit rate                                 : 38 b/s
Count of elements                        : 1025
Stream size                              : 30.3 KiB (0%)
Language                                 : German
Default                                  : No
Forced                                   : No

Text #5
ID                                       : 7
Format                                   : UTF-8
Codec ID                                 : S_TEXT/UTF8
Codec ID/Info                            : UTF-8 Plain Text
Duration                                 : 1 h 47 min
Bit rate                                 : 35 b/s
Count of elements                        : 1020
Stream size                              : 28.4 KiB (0%)
Language                                 : Italian
Default                                  : No
Forced                                   : No



1 个附件 售价 大小 下载 时间

Forgotten.2017.iNTERNAL.1080p.WEB.x264-STRiFE[btbtt.me].torrent 0 金币 146.40K 2681 次 9月前

#1楼
发帖时间:2018-02-21 20:46:59   |   回复数:3
liyouchai
超凡入圣№
谢谢楼主分享资源
9月前 #2楼
911degrees
隐世仙人♂
非常感谢,谢谢分享
9月前 #3楼
blue23
隐世仙人♂
感谢楼主分享
9月前 #4楼
游客组