aoloffline
版主

[2017] [欧美] [纪录] [BD-Remux] [BT下载]地球:神奇的一天 2017.DOCU.2160p.BluRay.REMUX.HEVC.DTS-FGT 51GB

-->

自带中字

Earth.One.Amazing.Day.2017.DOCU.2160p.BluRay.REMUX.HEVC.DTS-HD.MA.TrueHD.7.1.Atmos-FGT

◎译  名 地球:神奇的一天/地球:奇妙的一天(港)

◎片  名 Earth: One Amazing Day

◎年  代 2017

◎产  地 中国大陆/英国

◎类  别 纪录片

◎语  言 汉语普通话/英语

◎上映日期 2017-08-11(中国大陆)

◎豆瓣评分 8.2/10 from 11,904 users

◎豆瓣链接 https://movie.douban.com/subject/26647876/

◎BT之家整理 http://www.btbtt.co

◎片  长 94分钟

◎导  演 理查德·戴尔 Richard Dale / 彼得·韦柏  Peter Webber / 范立欣 Lixin Fan

◎主  演 成龙 Jackie Chan

      罗伯特·雷德福 Robert Redford


◎简  介


  曾成功推出电影《地球》的BBC地球影业带来了令人期待已久的续集——《地球:神奇的一天》,一段揭示自然界惊人力量的神奇旅程。一天内,我们跟随太阳的脚步从世界上最高的山到最远的岛、从野外的丛林走到繁华的城市。由于在电影制作技术上取得的惊人突破,从而我们可以让你能与一群难忘的角色亲密接触;幼年的斑马宝宝想要穿过一条湍急的河流, 英勇的企鹅爸爸每天都要从事一项与大海以性命相搏的工作来抚养家人,一个喜欢在大海里垂直着打瞌睡的抹香鲸家族,还有走在寻找真爱路上的树懒。《地球:神奇的一天》用幽默、亲密、感性而令人惊叹的电影感来讲述地球上这充满你见所未见而无法想象的神奇的每一天。



Video #1
ID                                       : 1
Format                                   : HEVC
Format/Info                              : High Efficiency Video Coding
Format profile                           : Main 10@L5.1@High
Codec ID                                 : V_MPEGH/ISO/HEVC
Duration                                 : 1 h 33 min
Bit rate                                 : 59.6 Mb/s
Width                                    : 3 840 pixels
Height                                   : 2 160 pixels
Display aspect ratio                     : 16:9
Frame rate mode                          : Constant
Frame rate                               : 24.000 FPS
Color space                              : YUV
Chroma subsampling                       : 4:2:0 (Type 2)
Bit depth                                : 10 bits
Bits/(Pixel*Frame)                       : 0.299
Stream size                              : 39.0 GiB (76%)
Title                                    : Earth.One.Amazing.Day.2017.DOCU.2160p.BluRay.REMUX.HEVC.DTS-HD.MA.TrueHD.7.1.Atmos-FGT
Default                                  : Yes
Forced                                   : No
Color range                              : Limited
Color primaries                          : BT.2020
Transfer characteristics                 : PQ
Matrix coefficients                      : BT.2020 non-constant
Mastering display color primaries        : Display P3
Mastering display luminance              : min: 0.0050 cd/m2, max: 1000 cd/m2
Maximum Content Light Level              : 1000 cd/m2
Maximum Frame-Average Light Level        : 217 cd/m2

Video #2
ID                                       : 2
Format                                   : HEVC
Format/Info                              : High Efficiency Video Coding
Format profile                           : Main 10@L5.1@High
Codec ID                                 : V_MPEGH/ISO/HEVC
Duration                                 : 1 h 33 min
Bit rate                                 : 7 833 kb/s
Width                                    : 1 920 pixels
Height                                   : 1 080 pixels
Display aspect ratio                     : 16:9
Frame rate mode                          : Constant
Frame rate                               : 24.000 FPS
Color space                              : YUV
Chroma subsampling                       : 4:2:0 (Type 2)
Bit depth                                : 10 bits
Bits/(Pixel*Frame)                       : 0.157
Stream size                              : 5.13 GiB (10%)
Title                                    : Earth.One.Amazing.Day.2017.DOCU.2160p.BluRay.REMUX.HEVC.DTS-HD.MA.TrueHD.7.1.Atmos-FGT
Default                                  : No
Forced                                   : No
Color range                              : Limited
Color primaries                          : BT.2020
Transfer characteristics                 : PQ
Matrix coefficients                      : BT.2020 non-constant
Mastering display color primaries        : Display P3
Mastering display luminance              : min: 0.0050 cd/m2, max: 1000 cd/m2

Audio #1
ID                                       : 3
Format                                   : TrueHD
Format profile                           : TrueHD+Atmos / TrueHD
Codec ID                                 : A_TRUEHD
Duration                                 : 1 h 33 min
Bit rate mode                            : Variable
Bit rate                                 : 6 085 kb/s
Maximum bit rate                         : 9 063 kb/s
Channel(s)                               : Object Based / 8 channels
Channel positions                        : Object Based / Front: L C R, Side: L R, Back: L R, LFE
Sampling rate                            :  / 48.0 kHz
Frame rate                               : 1 200.000 FPS (40 SPF)
Compression mode                         : Lossless
Stream size                              : 3.98 GiB (8%)
Title                                    : Earth.One.Amazing.Day.2017.DOCU.2160p.BluRay.REMUX.HEVC.DTS-HD.MA.TrueHD.7.1.Atmos-FGT
Language                                 : English
Default                                  : Yes
Forced                                   : No

Audio #2
ID                                       : 4
Format                                   : DTS
Format/Info                              : Digital Theater Systems
Format profile                           : MA / Core
Codec ID                                 : A_DTS
Duration                                 : 1 h 33 min
Bit rate mode                            : Variable / Constant
Bit rate                                 : 4 054 kb/s / 1 509 kb/s
Channel(s)                               : 8 channels / 6 channels
Channel positions                        : Front: L C R, Side: L R, Back: L R, LFE / Front: L C R, Side: L R, LFE
Sampling rate                            : 48.0 kHz
Frame rate                               : 93.750 FPS (512 SPF)
Bit depth                                : 24 bits
Compression mode                         : Lossless / Lossy
Stream size                              : 2.65 GiB (5%)
Title                                    : Earth.One.Amazing.Day.2017.DOCU.2160p.BluRay.REMUX.HEVC.DTS-HD.MA.TrueHD.7.1.Atmos-FGT
Language                                 : English
Default                                  : No
Forced                                   : No

Audio #3
ID                                       : 5
Format                                   : AC-3
Format/Info                              : Audio Coding 3
Codec ID                                 : A_AC3
Duration                                 : 1 h 33 min
Bit rate mode                            : Constant
Bit rate                                 : 640 kb/s
Channel(s)                               : 6 channels
Channel positions                        : Front: L C R, Side: L R, LFE
Sampling rate                            : 48.0 kHz
Frame rate                               : 31.250 FPS (1536 SPF)
Bit depth                                : 16 bits
Compression mode                         : Lossy
Stream size                              : 429 MiB (1%)
Title                                    : Earth.One.Amazing.Day.2017.DOCU.2160p.BluRay.REMUX.HEVC.DTS-HD.MA.TrueHD.7.1.Atmos-FGT
Language                                 : English
Service kind                             : Complete Main
Default                                  : No
Forced                                   : No

Audio #4
ID                                       : 6
Format                                   : AC-3
Format/Info                              : Audio Coding 3
Codec ID                                 : A_AC3
Duration                                 : 1 h 33 min
Bit rate mode                            : Constant
Bit rate                                 : 448 kb/s
Channel(s)                               : 6 channels
Channel positions                        : Front: L C R, Side: L R, LFE
Sampling rate                            : 48.0 kHz
Frame rate                               : 31.250 FPS (1536 SPF)
Bit depth                                : 16 bits
Compression mode                         : Lossy
Delay relative to video                  : 16 ms
Stream size                              : 300 MiB (1%)
Title                                    : Earth.One.Amazing.Day.2017.DOCU.2160p.BluRay.REMUX.HEVC.DTS-HD.MA.TrueHD.7.1.Atmos-FGT
Language                                 : Chinese
Service kind                             : Complete Main
Default                                  : No
Forced                                   : No

Text #1
ID                                       : 7
Format                                   : PGS
Muxing mode                              : zlib
Codec ID                                 : S_HDMV/PGS
Codec ID/Info                            : Picture based subtitle format used on BDs/HD-DVDs
Duration                                 : 1 h 27 min
Bit rate                                 : 24.6 kb/s
Count of elements                        : 1182
Stream size                              : 15.4 MiB (0%)
Title                                    : English-PGS
Language                                 : English
Default                                  : Yes
Forced                                   : No

Text #2
ID                                       : 8
Format                                   : PGS
Muxing mode                              : zlib
Codec ID                                 : S_HDMV/PGS
Codec ID/Info                            : Picture based subtitle format used on BDs/HD-DVDs
Duration                                 : 1 h 28 min
Bit rate                                 : 14.6 kb/s
Count of elements                        : 904
Stream size                              : 9.29 MiB (0%)
Title                                    : Chinese-PGS
Language                                 : Chinese
Default                                  : No
Forced                                   : No

Text #3
ID                                       : 9
Format                                   : PGS
Muxing mode                              : zlib
Codec ID                                 : S_HDMV/PGS
Codec ID/Info                            : Picture based subtitle format used on BDs/HD-DVDs
Duration                                 : 1 h 28 min
Bit rate                                 : 22.2 kb/s
Count of elements                        : 906
Stream size                              : 14.1 MiB (0%)
Title                                    : Spanish-PGS
Language                                 : Spanish
Default                                  : No
Forced                                   : No

Text #4
ID                                       : 10
Format                                   : PGS
Muxing mode                              : zlib
Codec ID                                 : S_HDMV/PGS
Codec ID/Info                            : Picture based subtitle format used on BDs/HD-DVDs
Duration                                 : 1 h 28 min
Bit rate                                 : 22.1 kb/s
Count of elements                        : 906
Stream size                              : 14.0 MiB (0%)
Title                                    : French-PGS
Language                                 : French
Default                                  : No
Forced                                   : No

Menu
00:00:00.000                             : en:Chapter 1
00:08:41.500                             : en:Chapter 2
00:16:49.958                             : en:Chapter 3
00:22:36.375                             : en:Chapter 4
00:29:06.416                             : en:Chapter 5
00:33:43.583                             : en:Chapter 6
00:36:21.125                             : en:Chapter 7
00:43:47.333                             : en:Chapter 8
00:47:47.500                             : en:Chapter 9
00:51:54.958                             : en:Chapter 10
00:57:49.708                             : en:Chapter 11
01:02:39.125                             : en:Chapter 12
01:06:01.958                             : en:Chapter 13
01:12:09.333                             : en:Chapter 14
01:16:30.208                             : en:Chapter 15
01:22:03.166                             : en:Chapter 16





1 个附件 售价 大小 下载 时间

Earth.One.Amazing.Day.2017.DOCU.2160p.BluRay.REMUX.HEVC.DTS-HD.MA.TrueHD.7.1.Atmos-FGT[btbtt.me].torrent 0 金币 129.48K 2272 次 4月前

#1楼
发帖时间:2018-02-22 20:17:15   |   回复数:5
911degrees
隐世仙人♂
非常感谢,谢谢分享
4月前 #2楼
liyouchai
超凡入圣№
谢谢楼主分享资源
4月前 #3楼
jokingcheung
一代宗师
谢谢分享
4月前 #4楼
18820774224
小有名气
4K资源,正吖,谢谢楼主
4月前 #5楼
blue23
隐世仙人♂
感谢楼主分享
4月前 #6楼
游客组