aoloffline
版主

[2015] [欧美] [喜剧] [WEB-1080P] [BT下载]A名单 The.A-List.2015.1080p.AMZN.WEBRip.DDP5.1.x264-QOQ 4.6GB

-->

The.A-List.2015.1080p.AMZN.WEBRip.DDP5.1.x264-QOQ

◎译  名 A名单

◎片  名 The A-List

◎年  代 2015

◎产  地 美国

◎类  别 剧情/喜剧

◎语  言 英语

◎IMDb评分  5.2/10 from 360 users

◎IMDb链接  http://www.imdb.com/title/tt2308682/

◎BT之家整理 http://www.btbtt.co

◎片  长 104分钟

◎导  演 Will Bigham

◎主  演 Hudson Thames

      Elizabeth Bond

      Skyler Vallo

      Deanna Lee Douglas

      Alyson Stoner

      Jack DePew


◎简  介


  埃里克·舒尔茨为了毕业被他的辅导老师强迫去完成一份她高中时的幻想列表。


Video
ID                                       : 1
Format                                   : AVC
Format/Info                              : Advanced Video Codec
Format profile                           : High@L4
Format settings                          : CABAC / 4 Ref Frames
Format settings, CABAC                   : Yes
Format settings, ReFrames                : 4 frames
Codec ID                                 : V_MPEG4/ISO/AVC
Duration                                 : 1 h 46 min
Bit rate mode                            : Variable
Bit rate                                 : 5 527 kb/s
Maximum bit rate                         : 15.0 Mb/s
Width                                    : 1 920 pixels
Height                                   : 1 080 pixels
Display aspect ratio                     : 16:9
Frame rate mode                          : Constant
Frame rate                               : 23.976 (24000/1001) FPS
Color space                              : YUV
Chroma subsampling                       : 4:2:0
Bit depth                                : 8 bits
Scan type                                : Progressive
Bits/(Pixel*Frame)                       : 0.111
Stream size                              : 4.13 GiB (90%)
Default                                  : Yes
Forced                                   : No
Color range                              : Limited
Color primaries                          : BT.709
Transfer characteristics                 : BT.709
Matrix coefficients                      : BT.709

Audio
ID                                       : 2
Format                                   : E-AC-3
Format/Info                              : Enhanced Audio Coding 3
Codec ID                                 : A_EAC3
Duration                                 : 1 h 46 min
Bit rate mode                            : Constant
Bit rate                                 : 640 kb/s
Channel(s)                               : 6 channels
Channel positions                        : Front: L C R, Side: L R, LFE
Sampling rate                            : 48.0 kHz
Frame rate                               : 187.500 FPS (256 SPF)
Compression mode                         : Lossy
Stream size                              : 489 MiB (10%)
Language                                 : English
Service kind                             : Complete Main
Default                                  : Yes
Forced                                   : No

Text #1
ID                                       : 3
Format                                   : UTF-8
Codec ID                                 : S_TEXT/UTF8
Codec ID/Info                            : UTF-8 Plain Text
Duration                                 : 1 h 43 min
Bit rate                                 : 65 b/s
Count of elements                        : 1701
Stream size                              : 50.0 KiB (0%)
Language                                 : English
Default                                  : No
Forced                                   : No

Text #2
ID                                       : 4
Format                                   : UTF-8
Codec ID                                 : S_TEXT/UTF8
Codec ID/Info                            : UTF-8 Plain Text
Duration                                 : 1 h 44 min
Bit rate                                 : 66 b/s
Count of elements                        : 1748
Stream size                              : 51.1 KiB (0%)
Title                                    : SDH
Language                                 : English
Default                                  : No
Forced                                   : No




1 个附件 售价 大小 下载 时间

The.A-List.2015.1080p.AMZN.WEBRip.DDP5.1.x264-QOQ[btbtt.me].torrent 0 金币 92.65K 777 次 6月前

#1楼
发帖时间:2018-03-13 19:07:53   |   回复数:4
tanchoohoon
武林盟主
感谢楼主的无私分享!
6月前 #2楼
blue23
隐世仙人♂
感谢楼主分享
6月前 #3楼
liyouchai
超凡入圣№
谢谢楼主分享资源
6月前 #4楼
911degrees
隐世仙人♂
非常感谢,谢谢分享
6月前 #5楼
游客组