aoloffline
版主

[更 早] [欧美] [动作] [WEB-1080P] [BT下载]正义前锋 The.Dukes.of.Hazzard.2005.1080p.WEB-DL.DD5.1.H264-FGT 3.97GB

-->

The.Dukes.of.Hazzard.2005.1080p.WEB-DL.DD5.1.H264-FGT

◎译  名 正义前锋/杜克兄弟

◎片  名 The Dukes of Hazzard

◎年  代 2005

◎产  地 美国/澳大利亚

◎类  别 动作/冒险/喜剧

◎语  言 英语

◎上映日期 2005-08-05(美国)

◎IMDb评分  5.1/10 from 70,109 users

◎IMDb链接  http://www.imdb.com/title/tt0377818/

◎豆瓣评分 6.3/10 from 546 users

◎豆瓣链接 https://movie.douban.com/subject/1419940/

◎BT之家整理 http://www.btbtt.co

◎片  长 104 分钟/107 分钟(unrated version)

◎导  演 杰伊·钱德拉萨卡 Jay Chandrasekhar

◎主  演 约翰尼·诺克斯维尔 Johnny Knoxville

      西恩·威廉·斯科特 Seann William Scott

      杰西卡·辛普森 Jessica Simpson


◎简  介


  故事发生在乔治亚州的海泽镇,卢克(约翰尼·诺克斯维尔 Johnny Knoxville 饰)和博(西恩·威廉·斯科特 Seann William Scott 饰)是情同手足的两兄弟,无所事事的两人每日就在叔叔杰西(威利·纳尔逊 Willie Nelson 饰)的农场里鬼混,整日不务正业。

  某日,卢克和博意外得知海泽镇的局长霍格(伯特·雷诺兹 Burt Reynolds 饰)和治安官柯尔特(大卫·科恩查内 David Koechner 饰)想要得到农场的阴谋,只因为在农场底下埋藏着珍贵的矿藏。对农场有着很深感情的两兄弟当然不能让他们得逞,联手性感火辣的表妹黛西(杰西卡·辛普森 Jessica Simpson 饰),四人在农场之中上演了一场你争我夺的精彩“战役”。最终鹿死谁手,尚未可知。


◎获奖情况


  第15届MTV电影奖  (2006)

  MTV电影奖 最佳银幕组合(提名) 西恩·威廉·斯科特 / 杰西卡·辛普森 / 约翰尼·诺克斯维尔

  MTV电影奖 最性感表演(提名) 杰西卡·辛普森


Video
ID                                       : 1
Format                                   : AVC
Format/Info                              : Advanced Video Codec
Format profile                           : High@L4
Format settings                          : CABAC / 4 Ref Frames
Format settings, CABAC                   : Yes
Format settings, ReFrames                : 4 frames
Codec ID                                 : V_MPEG4/ISO/AVC
Duration                                 : 1 h 46 min
Bit rate                                 : 4 926 kb/s
Width                                    : 1 920 pixels
Height                                   : 816 pixels
Display aspect ratio                     : 2.35:1
Frame rate mode                          : Constant
Frame rate                               : 29.970 (30000/1001) FPS
Color space                              : YUV
Chroma subsampling                       : 4:2:0
Bit depth                                : 8 bits
Scan type                                : Progressive
Bits/(Pixel*Frame)                       : 0.105
Stream size                              : 3.68 GiB (93%)
Title                                    : The.Dukes.of.Hazzard.2005.1080p.WEB-DL.DD5.1.H.264-FGT
Default                                  : Yes
Forced                                   : No
Color range                              : Limited
Color primaries                          : BT.709
Transfer characteristics                 : BT.709
Matrix coefficients                      : BT.709

Audio
ID                                       : 2
Format                                   : AC-3
Format/Info                              : Audio Coding 3
Codec ID                                 : A_AC3
Duration                                 : 1 h 46 min
Bit rate mode                            : Constant
Bit rate                                 : 384 kb/s
Channel(s)                               : 6 channels
Channel positions                        : Front: L C R, Side: L R, LFE
Sampling rate                            : 48.0 kHz
Frame rate                               : 31.250 FPS (1536 SPF)
Bit depth                                : 16 bits
Compression mode                         : Lossy
Stream size                              : 294 MiB (7%)
Title                                    : The.Dukes.of.Hazzard.2005.1080p.WEB-DL.DD5.1.H.264-FGT
Language                                 : English
Service kind                             : Complete Main
Default                                  : Yes
Forced                                   : No

Text
ID                                       : 3
Format                                   : UTF-8
Codec ID                                 : S_TEXT/UTF8
Codec ID/Info                            : UTF-8 Plain Text
Duration                                 : 1 h 44 min
Bit rate                                 : 66 b/s
Count of elements                        : 1270
Stream size                              : 50.6 KiB (0%)
Language                                 : English
Default                                  : No
Forced                                   : No

Menu
00:00:00.000                             : en:Upstairs Delivery
00:04:55.833                             : en:Chasing Credits
00:09:14.166                             : en:Nobody Bothers Daisy
00:13:29.833                             : enuking It Out
00:17:27.833                             : en:Cosmetic Damage
00:20:22.500                             : en:Hogg-Tied
00:23:55.166                             : en:Safe Transport
00:28:37.166                             : enole Vault
00:32:19.833                             : en:Grab Me an Armadillo
00:35:53.500                             : en:Blowing Things Up
00:38:40.500                             : en:Rescuing General Lee
00:41:54.333                             : en:They\'re Nice Up Here
00:43:22.166                             : enaisy Undercover
00:46:54.833                             : en:Sorority Girls
00:50:37.000                             : en:It Ain\'t Over Yer
00:52:07.333                             : en:Campus Police
00:54:27.666                             : en:Lab Specimens
00:58:17.333                             : en:Sleight of Hand
01:02:47.333                             : en:Checking Her Undercarriage
01:06:08.833                             : en:Say You\'re Sorry
01:11:02.000                             : enaisy Uncovered
01:14:32.166                             : en:So Many Pigs
01:19:16.000                             : en:Barnstormers
01:23:04.833                             : en:Surprise Entry
01:26:47.333                             : en:Joking and Smoking
01:30:56.000                             : en:Finish Line
01:34:41.500                             : en:Shooting the Moon
01:37:02.166                             : en:Gubernatorial Pardons
01:39:56.166                             : en:Feels Like Old Times
01:41:39.166                             : en:Outtakes and End Credits




1 个附件 售价 大小 下载 时间

The.Dukes.of.Hazzard.2005.1080p.WEB-DL.DD5.1.H264-FGT[btbtt.me].torrent 0 金币 79.92K 833 次 6月前

#1楼
发帖时间:2018-03-13 19:09:41   |   回复数:3
blue23
隐世仙人♂
感谢楼主分享
6月前 #2楼
liyouchai
超凡入圣№
谢谢楼主分享资源
6月前 #3楼
911degrees
隐世仙人♂
非常感谢,谢谢分享
6月前 #4楼
游客组