aoloffline
版主

[2007] [欧美] [动作] [WEB-1080P] [BT下载]正义前锋2 The.Dukes.of.Hazzard.2.2007.1080p.WEB-DL.DD5.1.H264-FGT 3.6GB

-->

The.Dukes.of.Hazzard.The.Beginning.2007.1080p.WEB-DL.DD5.1.H264-FGT

◎译  名 正义前锋2/正义前锋前传

◎片  名 The Dukes of Hazzard: The Beginning

◎产  地 USA

◎语  言 English

◎上映日期 2007-03-13

◎IMDb评分  4.5/10 from 4,256 users

◎IMDb链接  http://www.imdb.com/title/tt0800328/

◎豆瓣评分 5.7/10 from 126 users

◎豆瓣链接 https://movie.douban.com/subject/2032721/

◎BT之家整理 http://www.btbtt.co

◎导  演 Robert Berlinger

◎主  演 Jonathan Bennett

      Randy Wayne

      April Scott


◎简  介


  2005的电影《正义前锋》(The Dukes of Hazzard)自翻拍自上个世纪80年代一部红透美国的同名电视剧,而本片则是2005年《正义前锋》的前传。

  在美国乔治亚州的一个名叫哈兹的小镇上,鲍·杜克与卢克·杜克是一对亲密无间的表兄弟,他们自幼父母双亡,被送往美国乔治亚州的一个名叫哈兹的小镇和叔叔一起生活……


Video
ID                                       : 1
Format                                   : AVC
Format/Info                              : Advanced Video Codec
Format profile                           : High@L4
Format settings                          : CABAC / 4 Ref Frames
Format settings, CABAC                   : Yes
Format settings, ReFrames                : 4 frames
Codec ID                                 : V_MPEG4/ISO/AVC
Duration                                 : 1 h 35 min
Bit rate                                 : 5 072 kb/s
Width                                    : 1 916 pixels
Height                                   : 1 076 pixels
Display aspect ratio                     : 16:9
Frame rate mode                          : Constant
Frame rate                               : 23.976 (23976/1000) FPS
Color space                              : YUV
Chroma subsampling                       : 4:2:0
Bit depth                                : 8 bits
Scan type                                : Progressive
Bits/(Pixel*Frame)                       : 0.103
Stream size                              : 3.38 GiB (93%)
Title                                    : The.Dukes.of.Hazzard.The.Beginning.2007.1080p.WEB-DL.DD5.1.H.264-FGT
Language                                 : English
Default                                  : Yes
Forced                                   : No
Color range                              : Limited
Color primaries                          : BT.709
Transfer characteristics                 : BT.709
Matrix coefficients                      : BT.709

Audio
ID                                       : 2
Format                                   : AC-3
Format/Info                              : Audio Coding 3
Codec ID                                 : A_AC3
Duration                                 : 1 h 35 min
Bit rate mode                            : Constant
Bit rate                                 : 384 kb/s
Channel(s)                               : 6 channels
Channel positions                        : Front: L C R, Side: L R, LFE
Sampling rate                            : 48.0 kHz
Frame rate                               : 31.250 FPS (1536 SPF)
Bit depth                                : 16 bits
Compression mode                         : Lossy
Stream size                              : 262 MiB (7%)
Title                                    : The.Dukes.of.Hazzard.The.Beginning.2007.1080p.WEB-DL.DD5.1.H.264-FGT
Language                                 : English
Service kind                             : Complete Main
Default                                  : Yes
Forced                                   : No

Text
ID                                       : 3
Format                                   : UTF-8
Codec ID                                 : S_TEXT/UTF8
Codec ID/Info                            : UTF-8 Plain Text
Duration                                 : 1 h 35 min
Bit rate                                 : 86 b/s
Count of elements                        : 1879
Stream size                              : 60.5 KiB (0%)
Language                                 : English
Default                                  : Yes
Forced                                   : No

Menu #1
00:00:00.000                             : en:Upstairs Delivery
00:04:55.833                             : en:Chasing Credits
00:09:14.166                             : en:Nobody Bothers Daisy
00:13:29.833                             : enuking It Out
00:17:27.833                             : en:Cosmetic Damage
00:20:22.500                             : en:Hogg-Tied
00:23:55.166                             : en:Safe Transport
00:28:37.166                             : enole Vault
00:32:19.833                             : en:Grab Me an Armadillo
00:35:53.500                             : en:Blowing Things Up
00:38:40.500                             : en:Rescuing General Lee
00:41:54.333                             : en:They\'re Nice Up Here
00:43:22.166                             : enaisy Undercover
00:46:54.833                             : en:Sorority Girls
00:50:37.000                             : en:It Ain\'t Over Yer
00:52:07.333                             : en:Campus Police
00:54:27.666                             : en:Lab Specimens
00:58:17.333                             : en:Sleight of Hand
01:02:47.333                             : en:Checking Her Undercarriage
01:06:08.833                             : en:Say You\'re Sorry
01:11:02.000                             : enaisy Uncovered
01:14:32.166                             : en:So Many Pigs
01:19:16.000                             : en:Barnstormers
01:23:04.833                             : en:Surprise Entry
01:26:47.333                             : en:Joking and Smoking
01:30:56.000                             : en:Finish Line
01:34:41.500                             : en:Shooting the Moon
01:37:02.166                             : en:Gubernatorial Pardons
01:39:56.166                             : en:Feels Like Old Times
01:41:39.166                             : en:Outtakes and End Credits

Menu #2
00:00:00.000                             : en:Chapter 1
00:04:44.000                             : en:Chapter 2
00:09:50.000                             : en:Chapter 3
00:17:26.000                             : en:Chapter 4
00:23:12.000                             : en:Chapter 5
00:27:59.000                             : en:Chapter 6
00:31:53.000                             : en:Chapter 7
00:34:37.000                             : en:Chapter 8
00:42:11.000                             : en:Chapter 9
00:50:26.000                             : en:Chapter 10
00:55:48.000                             : en:Chapter 11
01:01:03.000                             : en:Chapter 12
01:04:30.000                             : en:Chapter 13
01:09:12.000                             : en:Chapter 14
01:14:17.000                             : en:Chapter 15
01:17:41.000                             : en:Chapter 16
01:20:58.000                             : en:Chapter 17
01:23:12.000                             : en:Chapter 18
01:29:25.000                             : en:Chapter 19
01:32:09.000                             : en:Chapter 20




1 个附件 售价 大小 下载 时间

The.Dukes.of.Hazzard.The.Beginning.2007.1080p.WEB-DL.DD5.1.H264-FGT[btbtt.me].torrent 0 金币 73.41K 987 次 6月前

#1楼
发帖时间:2018-03-13 19:11:30   |   回复数:5
tanchoohoon
武林盟主
感谢楼主的无私分享!
6月前 #2楼
blue23
隐世仙人♂
感谢楼主分享
6月前 #3楼
liyouchai
超凡入圣№
谢谢楼主分享资源
6月前 #4楼
911degrees
隐世仙人♂
非常感谢,谢谢分享
6月前 #5楼
tanchoohoon
武林盟主
感谢楼主的无私分享!
6月前 #6楼
游客组