aoloffline
版主

[更 早] [欧美] [动画] [WEB-1080P] [BT下载]小熊维尼:寻找克里斯多夫罗宾 1997.1080p.AMZN.WEBRip.DDP2.0.x265-SiGMA 4.2GB

-->

Poohs.Grand.Adventure.The.Search.for.Christopher.Robin.1997.1080p.AMZN.WEBRip.DDP2.0.x265-SiGMA

◎译  名 小熊维尼:寻找克里斯多夫罗宾

◎片  名 Pooh's Grand Adventure: The Search for Christopher Robin

◎年  代 1997

◎产  地 美国

◎类  别 动画/冒险

◎语  言 英语

◎上映日期 1997-08-05

◎IMDb评分  7.0/10 from 3,887 users

◎IMDb链接  http://www.imdb.com/title/tt0119918/

◎豆瓣评分 8.4/10 from 755 users

◎豆瓣链接 https://movie.douban.com/subject/1300694/

◎BT之家整理 http://www.btbtt.me/

◎片  长 76 分钟

◎导  演 Karl Geurs

◎主  演 Jim Cummings

      John Fiedler

      Ken Sansom

      Brady Bluhm

      Paul Winchell


◎简  介


  一转眼,克里斯托弗(Brady Bluhm 配音)就到了上学的年龄,要去学校报到了,这也就意味着,他必须离开森林,离开森林里的朋友们了。克里斯托弗写了一封信给动物们作为临别留言,然而,动物们却误解了信上的内容。它们以为克里斯托弗遇到了麻烦急需帮助,一拍即合之下,动物们踏上了营救克里斯托弗的旅途。

  憨厚可爱的小熊维尼(吉姆·库宁斯 Jim Cummings 配音)、活泼开朗的小猪皮杰(约翰·菲尔德 John Fiedler 配音)、聪慧好动的跳跳虎(保罗·温切尔 Paul Winchell 配音)、德高望重的猫头鹰(Andre Stojka 配音),在未知的远方,会有怎样有趣而又刺激的故事正在等待着它们呢?


◎获奖情况


  第26届动画安妮奖  (1998)

  最佳导演(提名) Karl Geurs

  最佳编剧(提名) 卡特·克劳克 / Karl Geurs

  最佳男配音(提名) 保罗·温切尔

  最佳配乐(提名) Carl Johnson

  最佳特殊动画(提名)


Video
ID                                       : 1
Format                                   : HEVC
Format/Info                              : High Efficiency Video Coding
Format profile                           : Main@L4@Main
Codec ID                                 : V_MPEGH/ISO/HEVC
Duration                                 : 1 h 15 min
Bit rate                                 : 7 854 kb/s
Width                                    : 1 920 pixels
Height                                   : 1 080 pixels
Display aspect ratio                     : 16:9
Frame rate mode                          : Constant
Frame rate                               : 23.976 (24000/1001) FPS
Standard                                 : NTSC
Color space                              : YUV
Chroma subsampling                       : 4:2:0
Bit depth                                : 8 bits
Bits/(Pixel*Frame)                       : 0.158
Stream size                              : 4.17 GiB (97%)
Default                                  : Yes
Forced                                   : No
Color range                              : Limited
Color primaries                          : BT.709
Transfer characteristics                 : BT.709
Matrix coefficients                      : BT.709

Audio
ID                                       : 2
Format                                   : E-AC-3
Format/Info                              : Enhanced Audio Coding 3
Codec ID                                 : A_EAC3
Duration                                 : 1 h 15 min
Bit rate mode                            : Constant
Bit rate                                 : 224 kb/s
Channel(s)                               : 2 channels
Channel positions                        : Front: L R
Sampling rate                            : 48.0 kHz
Frame rate                               : 187.500 FPS (256 SPF)
Compression mode                         : Lossy
Stream size                              : 122 MiB (3%)
Language                                 : English
Service kind                             : Complete Main
Default                                  : Yes
Forced                                   : No

Text
ID                                       : 3
Format                                   : UTF-8
Codec ID                                 : S_TEXT/UTF8
Codec ID/Info                            : UTF-8 Plain Text
Duration                                 : 1 h 15 min
Bit rate                                 : 53 b/s
Count of elements                        : 1190
Stream size                              : 29.4 KiB (0%)
Language                                 : English
Default                                  : No
Forced                                   : No





#1楼
发帖时间:2018-04-17 11:58:42   |   回复数:2
blue23
隐世仙人♂
感谢楼主分享
3天前 #2楼
liyouchai
超凡入圣№
谢谢楼主分享资源
3天前 #3楼
游客组